<?xml version="1.0" standalone="no"?>
<!DOCTYPE svg PUBLIC "-//W3C//DTD SVG 1.1//EN" "http://www.w3.org/Graphics/SVG/1.1/DTD/svg11.dtd" >
<svg xmlns="http://www.w3.org/2000/svg">
<metadata></metadata>
<defs>
<font id="vattenfall_headlineregular" horiz-adv-x="634" >
<font-face units-per-em="1024" ascent="768" descent="-256" />
<missing-glyph horiz-adv-x="217" />
<glyph unicode="CO&#x32;" horiz-adv-x="1618" d="M1578 -125l-18 -61q-76 26 -139 26q-60 0 -130 -26l-56 42q18 62 47.5 91.5t131.5 99.5q51 35 70 62.5t19 64.5t-29.5 59.5t-72.5 22.5q-38 0 -65.5 -24.5t-36.5 -63.5l-63 19q13 58 57 94t108 36q77 0 123.5 -39t46.5 -100q0 -59 -29 -98.5t-99 -85.5q-75 -50 -98 -70 t-33 -42q68 22 110 22q67 0 156 -29zM328 -10q-133 0 -210 98.5t-77 268.5t78.5 270t212.5 100q159 0 227 -138l-59 -39q-52 112 -169 112q-102 0 -160 -83.5t-58 -221.5q0 -136 58 -219t157 -83q66 0 105 30.5t72 95.5l61 -34q-38 -75 -94 -116t-144 -41zM890 -10 q-131 0 -204 97t-73 271t73 271.5t204 97.5t203.5 -97.5t72.5 -271.5t-72.5 -271t-203.5 -97zM890 55q99 0 152 79.5t53 223.5t-53 224t-152 80t-152 -80t-53 -224t53 -223.5t152 -79.5z" />
<glyph unicode="H&#x32;O" horiz-adv-x="1688" d="M1015 -186l18 61q-89 29 -155 29q-43 0 -111 -22q10 22 33 42t98 70q70 46 99 85.5t29 98.5q0 61 -46.5 100t-123.5 39q-64 0 -108 -36t-57 -94l64 -19q9 39 36.5 63.5t64.5 24.5q43 0 72.5 -22.5t29.5 -59.5t-19 -64.5t-70 -62.5q-102 -70 -131.5 -99.5t-47.5 -91.5 l56 -42q70 26 131 26q62 0 138 -26zM530 717h72v-717h-72v289q-131 104 -316 104q-38 0 -60 -3v-390h-72v717h72v-261q24 3 59 3q181 0 317 -88v346zM1371 -10q-131 0 -203.5 97t-72.5 271t72.5 271.5t203.5 97.5t204 -97.5t73 -271.5t-73 -271t-204 -97zM1371 55 q99 0 152 79.5t53 223.5t-53 224t-152 80t-152 -80t-53 -224t53 -223.5t152 -79.5z" />
<glyph unicode="KWH" horiz-adv-x="1946" d="M1811 253q0 -64 2 -96t15 -64.5t40 -45.5l-31 -57q-64 32 -80.5 92t-16.5 186v64q0 76 -35.5 113.5t-97.5 37.5t-104.5 -47t-42.5 -117v-319h-71v717h71v-231q23 27 64.5 45t82.5 18q99 0 151.5 -58.5t52.5 -160.5v-77zM497 53l-30 -63q-176 89 -221 305l-92 -92v-203 h-72v717h72v-415l270 269l49 -49l-166 -166q10 -109 59.5 -187t130.5 -116zM1309 713l-174 -713h-71l-157 588l-156 -588h-71l-174 713l72 14l141 -586l150 566h76l151 -566l141 586z" />
<glyph unicode="TWH" horiz-adv-x="1977" d="M475 717v-66h-187v-651h-72v651h-187v66h446zM1842 253q0 -50 1 -73.5t6 -55.5t17 -49.5t32 -27.5l-30 -57q-64 32 -81 92.5t-17 185.5v64q0 76 -35.5 113.5t-97.5 37.5t-104 -47t-42 -117v-319h-72v717h72v-231q23 27 64 45t82 18q99 0 152 -58.5t53 -160.5v-77z M1340 713l-174 -713h-70l-157 588l-157 -588h-70l-174 713l71 14l142 -586l150 566h76l150 -566l142 586z" />
<glyph horiz-adv-x="0" />
<glyph unicode="&#xd;" horiz-adv-x="0" />
<glyph unicode=" "  horiz-adv-x="217" />
<glyph unicode="&#x09;" horiz-adv-x="217" />
<glyph unicode="&#xa0;" horiz-adv-x="217" />
<glyph unicode="!" horiz-adv-x="256" d="M164 72v-72h-72v72h72zM164 717v-579h-72v579h72z" />
<glyph unicode="&#x22;" horiz-adv-x="378" d="M297 727v-264h-72v264h72zM154 727v-264h-72v264h72z" />
<glyph unicode="#" horiz-adv-x="688" d="M218 230l-86 -240l-66 23l78 221q-39 -2 -75 -14l-23 62q55 18 113 18h9l50 139q-3 0 -9.5 0.5t-9.5 0.5q-48 0 -89 -15l-23 61q57 19 113 19q15 0 41 -2l80 224l67 -25l-76 -209q128 -26 154 -28l94 262l67 -24l-86 -240q48 4 83 12l16 -61q-59 -17 -124 -19l-49 -138 q63 0 116 13l16 -61q-67 -19 -130 -19q-4 0 -13 0.5t-13 0.5l-71 -201l-68 24l67 187q-22 4 -74 14.5t-79 14.5zM291 430l-50 -137q21 -3 72.5 -14t80.5 -15l48 136q-31 4 -85 16t-66 14z" />
<glyph unicode="$" horiz-adv-x="536" d="M306 -8v-84h-72v85q-83 10 -131 63.5t-61 133.5l73 15q21 -126 119 -146v294q-78 32 -122.5 77.5t-44.5 121.5q0 72 46.5 118.5t120.5 54.5v74h72v-75q66 -9 108.5 -48t55.5 -105l-68 -19q-15 83 -96 104v-259q1 -1 3 -1q47 -18 76.5 -33.5t57 -38.5t40 -54.5t12.5 -74.5 q0 -86 -52.5 -140.5t-136.5 -62.5zM423 195q0 46 -29.5 75.5t-87.5 55.5v-269q56 8 86.5 45t30.5 93zM138 552q0 -76 96 -124v231q-44 -8 -70 -36t-26 -71z" />
<glyph unicode="%" horiz-adv-x="766" d="M197 346q-71 0 -107.5 50.5t-36.5 140.5t36.5 140t107.5 50t107 -50t36 -140t-36 -140.5t-107 -50.5zM197 662q-72 0 -72 -125t72 -125q71 0 71 125t-71 125zM138 -10l-37 63q98 54 151 125t102 191q60 145 116 226t142 132l44 -63q-87 -56 -135.5 -123.5t-108.5 -213.5 q-102 -251 -274 -337zM570 -10q-71 0 -107 50t-36 140t36 140.5t107 50.5t107.5 -50.5t36.5 -140.5t-36.5 -140t-107.5 -50zM570 305q-71 0 -71 -125t71 -125q72 0 72 125t-72 125z" />
<glyph unicode="&#x26;" horiz-adv-x="696" d="M640 333v-68q-25 -1 -50.5 -19.5t-41 -37t-42.5 -56.5q68 -59 154 -99l-27 -63q-88 32 -170 104q-87 -104 -194 -104q-93 0 -151 58t-58 147q0 132 150 234q-43 85 -43 156q0 59 39.5 100.5t96.5 41.5q58 0 95 -35t37 -93q0 -59 -32 -102.5t-99 -85.5q77 -133 155 -214 q31 43 51 66.5t55.5 46t74.5 23.5zM242 371q-110 -77 -110 -173q0 -61 38 -102t103 -41q75 0 143 84q-97 99 -174 232zM364 594q0 30 -16 49t-45 19q-28 0 -46 -21.5t-18 -56.5q0 -53 33 -116q53 34 72.5 62t19.5 64z" />
<glyph unicode="'" horiz-adv-x="235" d="M154 727v-264h-72v264h72z" />
<glyph unicode="(" horiz-adv-x="394" d="M345 -31l-35 -59q-238 146 -238 416q0 269 238 415l35 -59q-202 -128 -202 -356q0 -229 202 -357z" />
<glyph unicode=")" horiz-adv-x="394" d="M84 -90l-35 59q202 128 202 357q0 228 -202 356l35 59q239 -146 239 -415q0 -270 -239 -416z" />
<glyph unicode="*" horiz-adv-x="397" d="M231 627l87 50l33 -57l-87 -51l87 -50l-33 -57l-87 50v-100h-65v100l-87 -50l-33 57l86 50l-86 51l33 57l87 -50v100h65v-100z" />
<glyph unicode="+" horiz-adv-x="585" d="M539 401v-65h-210v-213h-72v213h-210v65h210v213h72v-213h210z" />
<glyph unicode="," horiz-adv-x="215" d="M92 86h72q0 -141 -110 -233l-49 51q46 39 66.5 82t20.5 100z" />
<glyph unicode="-" horiz-adv-x="354" d="M307 355v-65h-260v65h260z" />
<glyph unicode="." horiz-adv-x="215" d="M143 86v-86h-71v86h71z" />
<glyph unicode="/" horiz-adv-x="375" d="M333 707l-225 -717l-65 20l225 717z" />
<glyph unicode="0" horiz-adv-x="585" d="M293 -10q-120 0 -186 97t-66 271t66 271.5t186 97.5t186 -97.5t66 -271.5t-66 -271t-186 -97zM293 662q-89 0 -134.5 -78t-45.5 -226t45.5 -225.5t134.5 -77.5t134.5 77.5t45.5 225.5t-45.5 226t-134.5 78z" />
<glyph unicode="1" horiz-adv-x="375" d="M294 717v-717h-72v609q-53 -60 -151 -60v67q113 0 151 101h72z" />
<glyph unicode="2" horiz-adv-x="582" d="M536 61l-22 -61q-113 44 -209 44q-91 0 -196 -44l-62 47q8 38 21.5 66.5t27 49t50 50.5t64 50t96.5 68q73 51 100.5 94.5t27.5 99.5q0 60 -43.5 98.5t-109.5 38.5q-132 0 -165 -139l-70 22q52 182 235 182q104 0 164.5 -57t60.5 -144q0 -88 -43 -144.5t-155 -128.5 q-93 -60 -132.5 -101t-49.5 -79q76 37 179 37q122 0 231 -49z" />
<glyph unicode="3" horiz-adv-x="575" d="M286 -10q-190 0 -248 184l60 33q53 -152 188 -152q71 0 118 47t47 122q0 74 -55.5 118t-149.5 44h-55v46l186 194q-53 -17 -104 -17q-95 0 -200 45l29 63q97 -38 185 -38q86 0 180 38l38 -53l-209 -217q38 -2 75.5 -15t72.5 -38t56.5 -68.5t21.5 -99.5q0 -102 -67.5 -169 t-168.5 -67z" />
<glyph unicode="4" horiz-adv-x="566" d="M433 297q70 -10 135 -37l-24 -60q-50 21 -111 31v-231h-72v238h-16q-128 0 -234 -49l-55 59l330 479l58 -41l-280 -407q92 24 182 24h15v141h72v-147z" />
<glyph unicode="5" horiz-adv-x="574" d="M279 -10q-87 0 -153 45.5t-92 123.5l61 32q54 -136 184 -136q86 0 132.5 52t46.5 127t-44.5 127.5t-127.5 52.5q-100 0 -170 -74l-55 36l52 341q117 -28 196 -28q86 0 158 28l20 -65q-77 -28 -178 -28q-77 0 -137 14l-31 -204q66 45 151 45q113 0 175 -67.5t62 -177.5 q0 -108 -68 -176t-182 -68z" />
<glyph unicode="6" horiz-adv-x="581" d="M306 -10q-125 0 -187.5 89t-62.5 254q0 190 72.5 292t199.5 102q134 0 196 -121l-56 -44q-20 42 -57 71t-82 29q-93 0 -145 -80t-53 -209q27 39 75.5 63.5t105.5 24.5q100 0 166 -63.5t66 -174.5q0 -99 -68.5 -166t-169.5 -67zM307 55q73 0 119 47.5t46 122.5t-46 122.5 t-119 47.5t-119 -47.5t-46 -122.5t46 -122.5t119 -47.5z" />
<glyph unicode="7" horiz-adv-x="477" d="M212 0h-74l229 643q-71 -21 -165 -21q-112 0 -188 31l20 64q87 -30 168 -30q111 0 209 30l43 -36z" />
<glyph unicode="8" horiz-adv-x="595" d="M298 727q94 0 149.5 -52.5t55.5 -132.5q0 -44 -22.5 -84.5t-61.5 -64.5q56 -27 88 -75t32 -111q0 -94 -66.5 -155.5t-174.5 -61.5t-174.5 61.5t-66.5 155.5q0 63 32 111t88 75q-39 24 -61.5 64.5t-22.5 84.5q0 80 55.5 132.5t149.5 52.5zM298 55q76 0 122.5 43t46.5 108 t-46.5 107.5t-122.5 42.5t-122.5 -42.5t-46.5 -107.5t46.5 -108t122.5 -43zM298 662q-59 0 -96 -33t-37 -87t36 -87t97 -33t97 33t36 87t-37 87t-96 33z" />
<glyph unicode="9" horiz-adv-x="581" d="M275 727q250 0 250 -324q0 -201 -67 -307t-190 -106q-139 0 -208 121l57 45q21 -45 61 -73t90 -28q87 0 134 80t47 206q-58 -85 -180 -85q-100 0 -165.5 63.5t-65.5 174.5q0 100 67.5 166.5t169.5 66.5zM274 662q-72 0 -118 -48.5t-46 -121.5q0 -74 44.5 -122t119.5 -48 q72 0 118.5 48.5t46.5 121.5q0 74 -46.5 122t-118.5 48z" />
<glyph unicode=":" horiz-adv-x="215" d="M143 485v-86h-71v86h71zM143 86v-86h-71v86h71z" />
<glyph unicode=";" horiz-adv-x="215" d="M164 485v-86h-72v86h72zM92 86h72q0 -141 -110 -233l-49 51q46 39 66.5 82t20.5 100z" />
<glyph unicode="&#x3c;" horiz-adv-x="467" d="M49 286v71l344 194l33 -58l-300 -171l300 -171l-33 -59z" />
<glyph unicode="=" horiz-adv-x="585" d="M539 453v-66h-492v66h492zM539 268v-65h-492v65h492z" />
<glyph unicode="&#x3e;" horiz-adv-x="467" d="M419 357v-71l-344 -194l-33 59l300 171l-300 171l33 58z" />
<glyph unicode="?" horiz-adv-x="467" d="M308 233l26 -57q-30 -18 -77 -18q-49 0 -85.5 32t-36.5 89q0 49 26.5 83t80.5 63q63 34 91 63t28 74q0 42 -32 71t-86 29q-52 0 -91.5 -32.5t-53.5 -89.5l-67 22q24 77 78 121t134 44q89 0 139.5 -45t50.5 -116q0 -64 -36.5 -108t-113.5 -87q-42 -24 -59 -45t-17 -47 q0 -27 15 -42.5t40 -15.5q23 0 46 12zM276 86v-86h-71v86h71z" />
<glyph unicode="@" horiz-adv-x="789" d="M505 544h72v-260q0 -71 45 -71q55 0 55 182q0 128 -72 197.5t-191 69.5q-127 0 -212 -89t-85 -215q0 -139 79 -221t202 -82q64 0 109.5 16.5t80.5 33t75 16.5q25 0 46 -10l-19 -61q-15 5 -27 5q-20 0 -45.5 -10t-49 -22.5t-69.5 -22.5t-101 -10q-159 0 -256 98.5 t-97 269.5q0 157 106 263t263 106q152 0 243.5 -86.5t91.5 -244.5q0 -249 -136 -249q-37 0 -63 18.5t-38 45.5q-22 -29 -57 -46.5t-76 -17.5q-73 0 -126.5 52t-53.5 155q0 101 57 154t124 53q86 0 125 -52v35zM380 213q58 0 91.5 36t33.5 105q0 68 -32 105t-84 37t-85.5 -37 t-33.5 -105q0 -67 32 -104t78 -37z" />
<glyph unicode="A" horiz-adv-x="622" d="M529 -10l-64 184q-42 -7 -89 -7q-134 0 -201 57l-82 -234l-64 22l244 705h76l245 -705zM311 616l-114 -328q77 -57 184 -57q18 0 62 6z" />
<glyph unicode="B" horiz-adv-x="614" d="M331 0h-249v717h236q88 0 136 -50t48 -122q0 -69 -51 -124q57 -24 90 -74t33 -124q0 -105 -63.5 -164t-179.5 -59zM154 324v-258h174q94 0 134.5 41t40.5 115q0 63 -40 105t-113 42q-18 0 -38 -3q-102 -14 -158 -42zM316 651h-162v-256q82 27 173 37q52 6 77.5 36 t25.5 76q0 45 -30 76t-84 31z" />
<glyph unicode="C" horiz-adv-x="594" d="M328 -10q-133 0 -210 98.5t-77 268.5t78.5 270t212.5 100q159 0 227 -138l-59 -39q-52 112 -169 112q-102 0 -160 -83.5t-58 -221.5q0 -136 58 -219t157 -83q66 0 105 30.5t72 95.5l61 -34q-38 -75 -94 -116t-144 -41z" />
<glyph unicode="D" horiz-adv-x="637" d="M250 0h-168v717h168q159 0 253 -98t94 -261t-94 -260.5t-253 -97.5zM154 651v-585h96q122 0 198.5 78t76.5 214q0 137 -76.5 215t-198.5 78h-96z" />
<glyph unicode="E" horiz-adv-x="533" d="M481 651h-327v-274q53 21 124 21q54 0 122 -16l-16 -65q-66 16 -106 16q-75 0 -124 -29v-238h342v-66h-414v717h399v-66z" />
<glyph unicode="F" horiz-adv-x="529" d="M154 297v-297h-72v717h415v-66h-343v-281q53 21 124 21q54 0 122 -16l-16 -65q-66 16 -106 16q-75 0 -124 -29z" />
<glyph unicode="G" horiz-adv-x="651" d="M334 -10q-143 0 -218 98t-75 270q0 171 78 270t219 99q173 0 242 -141l-63 -38q-24 54 -73 84t-106 30q-108 0 -166.5 -81t-58.5 -223q0 -143 56.5 -223t164.5 -80q122 0 190 113v125q-91 0 -188 28l17 63q92 -27 213 -27h30v-210q-99 -157 -262 -157z" />
<glyph unicode="H" horiz-adv-x="684" d="M530 717h72v-717h-72v289q-131 104 -316 104q-38 0 -60 -3v-390h-72v717h72v-261q24 3 59 3q181 0 317 -88v346z" />
<glyph unicode="I" horiz-adv-x="235" d="M154 717v-717h-72v717h72z" />
<glyph unicode="J" horiz-adv-x="471" d="M218 -10q-60 0 -105 30t-67 84l56 36q39 -85 116 -85q50 0 79 33.5t29 100.5v528h71v-516q0 -93 -45.5 -152t-133.5 -59z" />
<glyph unicode="K" horiz-adv-x="552" d="M154 717v-363l303 373l51 -44l-200 -244q6 -128 67.5 -232.5t162.5 -153.5l-31 -63q-219 109 -263 369l-90 -110v-249h-72v717h72z" />
<glyph unicode="L" horiz-adv-x="512" d="M473 66v-66h-391v717h72v-651h319z" />
<glyph unicode="M" horiz-adv-x="761" d="M680 717v-717h-72v556l-191 -397h-72l-191 397v-556h-72v717h72l227 -473l227 473h72z" />
<glyph unicode="N" horiz-adv-x="672" d="M154 531v-531h-72v717h72q24 -84 63 -155t133 -171q53 -56 75 -81t48 -61t46 -75v543h72v-717h-72q-17 66 -69 155.5t-138 178.5q-116 119 -158 197z" />
<glyph unicode="O" d="M317 -10q-131 0 -203.5 97t-72.5 271t72.5 271.5t203.5 97.5t204 -97.5t73 -271.5t-73 -271t-204 -97zM317 55q99 0 152 79.5t53 223.5t-53 224t-152 80t-151.5 -79.5t-52.5 -224.5q0 -144 52.5 -223.5t151.5 -79.5z" />
<glyph unicode="P" horiz-adv-x="578" d="M154 319v-319h-72v717h228q105 0 167 -56t62 -154q0 -97 -60 -153.5t-158 -56.5q-81 0 -167 22zM154 651v-262q106 -27 168 -27q63 0 104 37.5t41 107.5q0 71 -43.5 107.5t-118.5 36.5h-151z" />
<glyph unicode="Q" d="M161 -124l-19 59q51 23 99 23q33 0 87 -15.5t87 -15.5q38 0 86 17l17 -59q-54 -23 -106 -23q-34 0 -88 15t-84 15q-36 0 -79 -16zM317 -10q-131 0 -203.5 97t-72.5 271t72.5 271.5t203.5 97.5t204 -97.5t73 -271.5t-73 -271t-204 -97zM317 55q99 0 152 79.5t53 223.5 t-53 224t-152 80t-151.5 -79.5t-52.5 -224.5q0 -144 52.5 -223.5t151.5 -79.5z" />
<glyph unicode="R" horiz-adv-x="592" d="M290 293q-75 0 -136 16v-309h-72v717h210q116 0 178 -57t62 -150q0 -75 -39.5 -130t-113.5 -76q39 -177 196 -250l-30 -64q-96 45 -156.5 125t-83.5 178h-15zM154 651v-273q78 -20 142 -20q76 0 120.5 39.5t44.5 112.5q0 69 -44 105t-121 36h-142z" />
<glyph unicode="S" horiz-adv-x="537" d="M270 -10q-92 0 -152 51t-76 131l69 33q34 -150 159 -150q70 0 112 38.5t42 101.5q0 54 -39.5 85.5t-121.5 62.5q-43 16 -73.5 32t-61 40t-46 58.5t-15.5 78.5q0 79 60 127t143 48q160 0 206 -139l-63 -36q-17 55 -55 82.5t-88 27.5q-57 0 -94.5 -29.5t-37.5 -77.5 q0 -32 13 -56.5t40.5 -43.5t52 -31t66.5 -28q47 -18 76.5 -33.5t57 -38.5t40 -54.5t12.5 -74.5q0 -94 -64.5 -149.5t-161.5 -55.5z" />
<glyph unicode="T" horiz-adv-x="503" d="M485 717v-66h-197v-651h-72v651h-198v66h467z" />
<glyph unicode="U" horiz-adv-x="675" d="M338 -10q-128 0 -196 81.5t-68 236.5v409h71v-415q0 -125 50.5 -186t142.5 -61t142 61t50 186v415h72v-409q0 -154 -68 -236t-196 -82z" />
<glyph unicode="V" horiz-adv-x="577" d="M553 707l-224 -707h-80l-224 707l66 20l198 -621l197 621z" />
<glyph unicode="W" horiz-adv-x="854" d="M828 713l-174 -713h-70l-157 588l-157 -588h-70l-174 713l71 14l142 -586l150 566h76l150 -566l142 586z" />
<glyph unicode="X" horiz-adv-x="528" d="M499 693l-195 -318l213 -347l-56 -38l-197 320l-195 -320l-58 38l213 347l-194 318l59 34l175 -287l176 287z" />
<glyph unicode="Y" horiz-adv-x="567" d="M532 694l-213 -384v-310h-71v310l-213 384l60 33l189 -344l188 344z" />
<glyph unicode="Z" horiz-adv-x="555" d="M514 66v-66h-470q0 89 43 177t167 205q89 84 128 143t47 126h-375v66h454q0 -100 -42 -186t-165 -197q-74 -66 -120 -141t-48 -127h381z" />
<glyph unicode="[" horiz-adv-x="344" d="M281 793v-66h-127v-737h127v-66h-199v869h199z" />
<glyph unicode="\" horiz-adv-x="375" d="M268 -10l-225 717l65 20l225 -717z" />
<glyph unicode="]" horiz-adv-x="344" d="M63 727v66h199v-869h-199v66h127v737h-127z" />
<glyph unicode="^" horiz-adv-x="499" d="M214 717h72l181 -197l-48 -46l-169 184l-169 -184l-48 46z" />
<glyph unicode="_" horiz-adv-x="471" d="M459 -20v-66h-447v66h447z" />
<glyph unicode="`" horiz-adv-x="239" d="M209 618l-47 -55l-131 109l47 55z" />
<glyph unicode="a" horiz-adv-x="622" d="M529 -10l-64 184q-42 -7 -89 -7q-134 0 -201 57l-82 -234l-64 22l244 705h76l245 -705zM311 616l-114 -328q77 -57 184 -57q18 0 62 6z" />
<glyph unicode="b" horiz-adv-x="614" d="M331 0h-249v717h236q88 0 136 -50t48 -122q0 -69 -51 -124q57 -24 90 -74t33 -124q0 -105 -63.5 -164t-179.5 -59zM154 324v-258h174q94 0 134.5 41t40.5 115q0 63 -40 105t-113 42q-18 0 -38 -3q-102 -14 -158 -42zM316 651h-162v-256q82 27 173 37q52 6 77.5 36 t25.5 76q0 45 -30 76t-84 31z" />
<glyph unicode="c" horiz-adv-x="594" d="M328 -10q-133 0 -210 98.5t-77 268.5t78.5 270t212.5 100q159 0 227 -138l-59 -39q-52 112 -169 112q-102 0 -160 -83.5t-58 -221.5q0 -136 58 -219t157 -83q66 0 105 30.5t72 95.5l61 -34q-38 -75 -94 -116t-144 -41z" />
<glyph unicode="d" horiz-adv-x="637" d="M250 0h-168v717h168q159 0 253 -98t94 -261t-94 -260.5t-253 -97.5zM154 651v-585h96q122 0 198.5 78t76.5 214q0 137 -76.5 215t-198.5 78h-96z" />
<glyph unicode="e" horiz-adv-x="533" d="M481 651h-327v-274q53 21 124 21q54 0 122 -16l-16 -65q-66 16 -106 16q-75 0 -124 -29v-238h342v-66h-414v717h399v-66z" />
<glyph unicode="f" horiz-adv-x="529" d="M154 297v-297h-72v717h415v-66h-343v-281q53 21 124 21q54 0 122 -16l-16 -65q-66 16 -106 16q-75 0 -124 -29z" />
<glyph unicode="g" horiz-adv-x="651" d="M334 -10q-143 0 -218 98t-75 270q0 171 78 270t219 99q173 0 242 -141l-63 -38q-24 54 -73 84t-106 30q-108 0 -166.5 -81t-58.5 -223q0 -143 56.5 -223t164.5 -80q122 0 190 113v125q-91 0 -188 28l17 63q92 -27 213 -27h30v-210q-99 -157 -262 -157z" />
<glyph unicode="h" horiz-adv-x="684" d="M530 717h72v-717h-72v289q-131 104 -316 104q-38 0 -60 -3v-390h-72v717h72v-261q24 3 59 3q181 0 317 -88v346z" />
<glyph unicode="i" horiz-adv-x="235" d="M154 717v-717h-72v717h72z" />
<glyph unicode="j" horiz-adv-x="471" d="M218 -10q-60 0 -105 30t-67 84l56 36q39 -85 116 -85q50 0 79 33.5t29 100.5v528h71v-516q0 -93 -45.5 -152t-133.5 -59z" />
<glyph unicode="k" horiz-adv-x="552" d="M154 717v-363l303 373l51 -44l-200 -244q6 -128 67.5 -232.5t162.5 -153.5l-31 -63q-219 109 -263 369l-90 -110v-249h-72v717h72z" />
<glyph unicode="l" horiz-adv-x="512" d="M473 66v-66h-391v717h72v-651h319z" />
<glyph unicode="m" horiz-adv-x="761" d="M680 717v-717h-72v556l-191 -397h-72l-191 397v-556h-72v717h72l227 -473l227 473h72z" />
<glyph unicode="n" horiz-adv-x="672" d="M154 531v-531h-72v717h72q24 -84 63 -155t133 -171q53 -56 75 -81t48 -61t46 -75v543h72v-717h-72q-17 66 -69 155.5t-138 178.5q-116 119 -158 197z" />
<glyph unicode="o" d="M317 -10q-131 0 -203.5 97t-72.5 271t72.5 271.5t203.5 97.5t204 -97.5t73 -271.5t-73 -271t-204 -97zM317 55q99 0 152 79.5t53 223.5t-53 224t-152 80t-151.5 -79.5t-52.5 -224.5q0 -144 52.5 -223.5t151.5 -79.5z" />
<glyph unicode="p" horiz-adv-x="578" d="M154 319v-319h-72v717h228q105 0 167 -56t62 -154q0 -97 -60 -153.5t-158 -56.5q-81 0 -167 22zM154 651v-262q106 -27 168 -27q63 0 104 37.5t41 107.5q0 71 -43.5 107.5t-118.5 36.5h-151z" />
<glyph unicode="q" d="M161 -124l-19 59q51 23 99 23q33 0 87 -15.5t87 -15.5q38 0 86 17l17 -59q-54 -23 -106 -23q-34 0 -88 15t-84 15q-36 0 -79 -16zM317 -10q-131 0 -203.5 97t-72.5 271t72.5 271.5t203.5 97.5t204 -97.5t73 -271.5t-73 -271t-204 -97zM317 55q99 0 152 79.5t53 223.5 t-53 224t-152 80t-151.5 -79.5t-52.5 -224.5q0 -144 52.5 -223.5t151.5 -79.5z" />
<glyph unicode="r" horiz-adv-x="592" d="M290 293q-75 0 -136 16v-309h-72v717h210q116 0 178 -57t62 -150q0 -75 -39.5 -130t-113.5 -76q39 -177 196 -250l-30 -64q-96 45 -156.5 125t-83.5 178h-15zM154 651v-273q78 -20 142 -20q76 0 120.5 39.5t44.5 112.5q0 69 -44 105t-121 36h-142z" />
<glyph unicode="s" horiz-adv-x="537" d="M270 -10q-92 0 -152 51t-76 131l69 33q34 -150 159 -150q70 0 112 38.5t42 101.5q0 54 -39.5 85.5t-121.5 62.5q-43 16 -73.5 32t-61 40t-46 58.5t-15.5 78.5q0 79 60 127t143 48q160 0 206 -139l-63 -36q-17 55 -55 82.5t-88 27.5q-57 0 -94.5 -29.5t-37.5 -77.5 q0 -32 13 -56.5t40.5 -43.5t52 -31t66.5 -28q47 -18 76.5 -33.5t57 -38.5t40 -54.5t12.5 -74.5q0 -94 -64.5 -149.5t-161.5 -55.5z" />
<glyph unicode="t" horiz-adv-x="503" d="M485 717v-66h-197v-651h-72v651h-198v66h467z" />
<glyph unicode="u" horiz-adv-x="675" d="M338 -10q-128 0 -196 81.5t-68 236.5v409h71v-415q0 -125 50.5 -186t142.5 -61t142 61t50 186v415h72v-409q0 -154 -68 -236t-196 -82z" />
<glyph unicode="v" horiz-adv-x="577" d="M553 707l-224 -707h-80l-224 707l66 20l198 -621l197 621z" />
<glyph unicode="w" horiz-adv-x="854" d="M828 713l-174 -713h-70l-157 588l-157 -588h-70l-174 713l71 14l142 -586l150 566h76l150 -566l142 586z" />
<glyph unicode="x" horiz-adv-x="528" d="M499 693l-195 -318l213 -347l-56 -38l-197 320l-195 -320l-58 38l213 347l-194 318l59 34l175 -287l176 287z" />
<glyph unicode="y" horiz-adv-x="567" d="M532 694l-213 -384v-310h-71v310l-213 384l60 33l189 -344l188 344z" />
<glyph unicode="z" horiz-adv-x="555" d="M514 66v-66h-470q0 89 43 177t167 205q89 84 128 143t47 126h-375v66h454q0 -100 -42 -186t-165 -197q-74 -66 -120 -141t-48 -127h381z" />
<glyph unicode="{" horiz-adv-x="386" d="M151 358q28 -11 36.5 -34t8.5 -70v-184q0 -80 63 -80h64v-66h-64q-135 0 -135 151v184q0 36 -13 51.5t-48 15.5h-25v65h25q35 0 48 15.5t13 51.5v184q0 151 135 151h64v-66h-64q-63 0 -63 -80v-184q0 -47 -8.5 -70.5t-36.5 -34.5z" />
<glyph unicode="|" horiz-adv-x="215" d="M143 717v-860h-71v860h71z" />
<glyph unicode="}" horiz-adv-x="386" d="M236 358q-28 11 -37 34.5t-9 70.5v184q0 80 -63 80h-64v66h64q135 0 135 -151v-184q0 -36 13 -51.5t48 -15.5h25v-65h-25q-35 0 -48 -15.5t-13 -51.5v-184q0 -151 -135 -151h-64v66h64q63 0 63 80v184q0 47 9 70t37 34z" />
<glyph unicode="~" horiz-adv-x="524" d="M343 287q-27 0 -52 10.5t-41.5 23t-37.5 23t-41 10.5q-25 0 -44.5 -15t-27.5 -40l-60 25q40 96 133 96q43 0 94 -34t80 -34q54 0 90 64l49 -36q-30 -51 -60.5 -72t-81.5 -21z" />
<glyph unicode="&#xa1;" horiz-adv-x="256" d="M92 645v72h72v-72h-72zM92 0v579h72v-579h-72z" />
<glyph unicode="&#xa3;" horiz-adv-x="510" d="M42 333v65h61q-33 68 -33 137q0 77 54 134.5t151 57.5q75 0 127 -37.5t77 -101.5l-59 -41q-39 111 -145 111q-60 0 -97 -35t-37 -93q0 -15 2 -29t7.5 -29.5t9 -23.5t12.5 -26.5t12 -23.5h188v-65h-162q8 -30 8 -67q0 -105 -71 -177q43 0 97.5 -17t83.5 -17q43 0 66.5 21 t36.5 62l59 -20q-33 -128 -157 -128q-37 0 -95 17t-86 17q-45 0 -115 -24v66q108 72 108 197q0 33 -11 70h-92z" />
<glyph unicode="&#xa5;" horiz-adv-x="616" d="M509 233l19 -58q-41 -21 -96 -21q-43 0 -88 10v-164h-72v179q-30 5 -59 5q-44 0 -105 -22l-20 59q72 29 121 29q33 0 63 -6v65l-10 15q-30 4 -49 4q-41 0 -105 -23l-20 60q70 28 121 28h8l-192 292l58 42l225 -342l226 342l58 -42l-211 -319q30 -4 48 -4q35 0 80 15 l19 -59q-41 -21 -96 -21q-43 0 -88 10v-79q47 -9 85 -9t80 14z" />
<glyph unicode="&#xa6;" horiz-adv-x="235" d="M154 338h-72v379h72v-379zM82 236h72v-379h-72v379z" />
<glyph unicode="&#xa8;" horiz-adv-x="370" d="M299 666v-86h-72v86h72zM143 666v-86h-71v86h71z" />
<glyph unicode="&#xa9;" horiz-adv-x="823" d="M408 123q68 0 111.5 33.5t74.5 103.5l-62 34q-20 -50 -48.5 -78t-75.5 -28q-54 0 -86.5 42t-32.5 127t34.5 128t87.5 43q87 0 121 -90l60 38q-52 118 -180 118q-86 0 -140.5 -64.5t-54.5 -172.5t52.5 -171t138.5 -63zM412 -10q-149 0 -255 100.5t-106 267.5t106 268 t255 101q96 0 177 -43t132 -128.5t51 -197.5q0 -167 -105.5 -267.5t-254.5 -100.5zM412 55q120 0 204 81.5t84 221.5t-84 222t-204 82t-204.5 -82t-84.5 -222t84.5 -221.5t204.5 -81.5z" />
<glyph unicode="&#xab;" horiz-adv-x="550" d="M74 289v65l195 197l52 -51l-179 -178l179 -179l-52 -51zM258 289v65l196 197l51 -51l-178 -178l178 -179l-51 -51z" />
<glyph unicode="&#xad;" horiz-adv-x="354" d="M307 355v-65h-260v65h260z" />
<glyph unicode="&#xae;" horiz-adv-x="823" d="M412 -10q-149 0 -255 100.5t-106 267.5t106 268t255 101q96 0 177 -43t132 -128.5t51 -197.5q0 -167 -105.5 -267.5t-254.5 -100.5zM412 55q120 0 204 81.5t84 221.5t-84 222t-204 82t-204.5 -82t-84.5 -222t84.5 -221.5t204.5 -81.5zM586 453q0 -99 -93 -124 q25 -78 108 -121l-38 -62q-112 58 -146 177q-42 3 -81 14v-191h-72v431h179q68 0 105.5 -33t37.5 -91zM336 511v-109q51 -14 103 -14q36 0 55.5 17.5t19.5 47.5q0 25 -17.5 41.5t-49.5 16.5h-111z" />
<glyph unicode="&#xb4;" horiz-adv-x="239" d="M78 563l-47 55l131 109l47 -55z" />
<glyph unicode="&#xb7;" horiz-adv-x="215" d="M143 403v-86h-71v86h71z" />
<glyph unicode="&#xbb;" horiz-adv-x="551" d="M478 354v-65l-195 -197l-52 51l179 179l-179 178l52 51zM294 354v-65l-196 -197l-51 51l178 179l-178 178l51 51z" />
<glyph unicode="&#xbf;" horiz-adv-x="386" d="M71 483l-26 58q30 18 77 18q49 0 85.5 -32t36.5 -89q0 -49 -26.5 -83t-80.5 -63q-63 -35 -91.5 -63.5t-28.5 -73.5q0 -42 32.5 -71t86.5 -29q52 0 91.5 32.5t53.5 89.5l67 -22q-24 -77 -78 -121t-134 -44q-89 0 -139.5 45t-50.5 116q0 65 36.5 108.5t113.5 86.5 q42 24 59 45t17 47q0 27 -15 42.5t-40 15.5q-21 0 -46 -13zM102 631v86h72v-86h-72z" />
<glyph unicode="&#xc0;" horiz-adv-x="692" d="M535 -10l-65 184q-42 -7 -89 -7q-133 0 -201 57l-82 -234l-64 22l245 705h75l245 -705zM316 616l-114 -328q77 -57 184 -57q19 0 63 6zM406 823l-48 -55l-131 109l47 55z" />
<glyph unicode="&#xc1;" horiz-adv-x="622" d="M529 -10l-64 184q-42 -7 -89 -7q-134 0 -201 57l-82 -234l-64 22l244 705h76l245 -705zM311 616l-114 -328q77 -57 184 -57q18 0 62 6zM266 768l-47 55l131 109l47 -55z" />
<glyph unicode="&#xc2;" horiz-adv-x="622" d="M529 -10l-64 184q-42 -7 -89 -7q-134 0 -201 57l-82 -234l-64 22l244 705h76l245 -705zM311 616l-114 -328q77 -57 184 -57q18 0 62 6zM442 823l-47 -48l-84 81l-84 -81l-47 48l103 99h57z" />
<glyph unicode="&#xc3;" horiz-adv-x="622" d="M529 -10l-64 184q-42 -7 -89 -7q-134 0 -201 57l-82 -234l-64 22l244 705h76l245 -705zM311 616l-114 -328q77 -57 184 -57q18 0 62 6zM386 815q-38 0 -76.5 25.5t-63.5 25.5q-21 0 -39 -13.5t-24 -34.5l-61 24q33 90 125 90q35 0 76 -25.5t62 -25.5q35 0 64 51l53 -36 q-24 -45 -50.5 -63t-65.5 -18z" />
<glyph unicode="&#xc4;" horiz-adv-x="622" d="M529 -10l-64 184q-42 -7 -89 -7q-134 0 -201 57l-82 -234l-64 22l244 705h76l245 -705zM311 616l-114 -328q77 -57 184 -57q18 0 62 6zM425 870v-86h-72v86h72zM269 870v-86h-71v86h71z" />
<glyph unicode="&#xc5;" horiz-adv-x="692" d="M227 863q0 37 26 63t63 26t63.5 -26t26.5 -63t-26.5 -63t-63.5 -26t-63 26t-26 63zM279 863q0 -15 11 -26.5t26 -11.5t26.5 11.5t11.5 26.5t-11.5 26.5t-26.5 11.5t-26 -11.5t-11 -26.5zM535 -10l-65 184q-42 -7 -89 -7q-133 0 -201 57l-82 -234l-64 22l245 705h75 l245 -705zM316 616l-114 -328q77 -57 184 -57q19 0 63 6z" />
<glyph unicode="&#xc6;" horiz-adv-x="865" d="M813 651h-328v-274q53 21 124 21q55 0 123 -16l-16 -65q-66 16 -107 16q-75 0 -124 -29v-238h342v-66h-413v166q-130 0 -202 57l-124 -233l-59 33l368 694h416v-66zM243 281q72 -49 171 -49v369z" />
<glyph unicode="&#xc7;" horiz-adv-x="594" d="M328 -10q-133 0 -210 98.5t-77 268.5t78.5 270t212.5 100q159 0 227 -138l-59 -39q-52 112 -169 112q-102 0 -160 -83.5t-58 -221.5q0 -136 58 -219t157 -83q66 0 105 30.5t72 95.5l61 -34q-54 -104 -134 -138q23 -28 23 -65q0 -54 -33.5 -88.5t-89.5 -34.5 q-44 0 -73 20.5t-40 53.5l63 32q16 -41 54 -41q20 0 33.5 14.5t13.5 40.5q0 47 -55 49z" />
<glyph unicode="&#xc8;" horiz-adv-x="533" d="M481 651h-327v-274q53 21 124 21q54 0 122 -16l-16 -65q-66 16 -106 16q-75 0 -124 -29v-238h342v-66h-414v717h399v-66zM362 823l-47 -55l-131 109l47 55z" />
<glyph unicode="&#xc9;" horiz-adv-x="533" d="M481 651h-327v-274q53 21 124 21q54 0 122 -16l-16 -65q-66 16 -106 16q-75 0 -124 -29v-238h342v-66h-414v717h399v-66zM231 768l-47 55l131 109l47 -55z" />
<glyph unicode="&#xca;" horiz-adv-x="533" d="M481 651h-327v-274q53 21 124 21q54 0 122 -16l-16 -65q-66 16 -106 16q-75 0 -124 -29v-238h342v-66h-414v717h399v-66zM404 823l-47 -48l-84 81l-84 -81l-47 48l103 99h57z" />
<glyph unicode="&#xcb;" horiz-adv-x="533" d="M481 651h-327v-274q53 21 124 21q54 0 122 -16l-16 -65q-66 16 -106 16q-75 0 -124 -29v-238h342v-66h-414v717h399v-66zM387 870v-86h-72v86h72zM231 870v-86h-71v86h71z" />
<glyph unicode="&#xcc;" horiz-adv-x="235" d="M172 717v-717h-72v717h72zM225 823l-47 -55l-131 109l47 55z" />
<glyph unicode="&#xcd;" horiz-adv-x="235" d="M165 717v-717h-72v717h72zM87 768l-47 55l131 109l47 -55z" />
<glyph unicode="&#xce;" horiz-adv-x="235" d="M150 717v-717h-72v717h72zM245 823l-47 -48l-84 81l-84 -81l-47 48l102 99h57z" />
<glyph unicode="&#xcf;" horiz-adv-x="235" d="M131 717v-717h-72v717h72zM209 870v-86h-72v86h72zM53 870v-86h-71v86h71z" />
<glyph unicode="&#xd0;" horiz-adv-x="657" d="M269 0h-168v337q-36 0 -86 -14v65q41 13 86 13v316h168q159 0 253 -98t94 -261t-94 -260.5t-253 -97.5zM173 322v-256h96q122 0 199 78t77 214t-77 214.5t-199 78.5h-96v-261q58 -15 76 -15q40 0 90 13v-65q-47 -14 -92 -14q-26 0 -74 13z" />
<glyph unicode="&#xd1;" horiz-adv-x="672" d="M154 531v-531h-72v717h72q24 -84 63 -155t133 -171q53 -56 75 -81t48 -61t46 -75v543h72v-717h-72q-17 66 -69 155.5t-138 178.5q-116 119 -158 197zM411 815q-38 0 -77 25.5t-64 25.5q-21 0 -38.5 -13.5t-23.5 -34.5l-62 24q33 90 125 90q35 0 76.5 -25.5t62.5 -25.5 q34 0 63 51l53 -36q-24 -45 -50 -63t-65 -18z" />
<glyph unicode="&#xd2;" d="M289 -10q-131 0 -204 97t-73 271t73 271.5t204 97.5t203.5 -97.5t72.5 -271.5t-72.5 -271t-203.5 -97zM289 55q99 0 152 79.5t53 223.5t-53 224t-152 80t-152 -80t-53 -224t53 -223.5t152 -79.5zM378 823l-47 -55l-131 109l47 55z" />
<glyph unicode="&#xd3;" d="M317 -10q-131 0 -203.5 97t-72.5 271t72.5 271.5t203.5 97.5t204 -97.5t73 -271.5t-73 -271t-204 -97zM317 55q99 0 152 79.5t53 223.5t-53 224t-152 80t-151.5 -79.5t-52.5 -224.5q0 -144 52.5 -223.5t151.5 -79.5zM275 768l-47 55l131 109l48 -55z" />
<glyph unicode="&#xd4;" d="M289 -10q-131 0 -204 97t-73 271t73 271.5t204 97.5t203.5 -97.5t72.5 -271.5t-72.5 -271t-203.5 -97zM289 55q99 0 152 79.5t53 223.5t-53 224t-152 80t-152 -80t-53 -224t53 -223.5t152 -79.5zM420 823l-47 -48l-84 81l-84 -81l-47 48l102 99h57z" />
<glyph unicode="&#xd5;" d="M317 -10q-131 0 -203.5 97t-72.5 271t72.5 271.5t203.5 97.5t204 -97.5t73 -271.5t-73 -271t-204 -97zM317 55q99 0 152 79.5t53 223.5t-53 224t-152 80t-151.5 -79.5t-52.5 -224.5q0 -144 52.5 -223.5t151.5 -79.5zM392 815q-38 0 -76.5 25.5t-63.5 25.5 q-21 0 -39 -13.5t-24 -34.5l-61 24q33 90 125 90q35 0 76 -25.5t62 -25.5q35 0 64 51l53 -36q-24 -45 -50.5 -63t-65.5 -18z" />
<glyph unicode="&#xd6;" d="M317 -10q-131 0 -203.5 97t-72.5 271t72.5 271.5t203.5 97.5t204 -97.5t73 -271.5t-73 -271t-204 -97zM317 55q99 0 152 79.5t53 223.5t-53 224t-152 80t-151.5 -79.5t-52.5 -224.5q0 -144 52.5 -223.5t151.5 -79.5zM431 870v-86h-72v86h72zM275 870v-86h-71v86h71z" />
<glyph unicode="&#xd7;" horiz-adv-x="565" d="M438 565l51 -51l-156 -156l156 -155l-51 -51l-155 156l-156 -156l-51 51l156 155l-156 156l51 51l156 -156z" />
<glyph unicode="&#xd8;" d="M317 -10q-73 0 -128 30l-22 -47l-58 27l28 59q-96 96 -96 299q0 174 72.5 271.5t203.5 97.5q68 0 128 -31l23 47l58 -26l-28 -60q96 -96 96 -299q0 -174 -73 -271t-204 -97zM317 55q99 0 152 79.5t53 223.5q0 153 -58 231l-245 -508q43 -26 98 -26zM113 358 q0 -153 57 -230l246 507q-44 27 -99 27q-99 0 -151.5 -79.5t-52.5 -224.5z" />
<glyph unicode="&#xd9;" horiz-adv-x="675" d="M302 -10q-128 0 -196 81.5t-68 236.5v409h72v-415q0 -125 50 -186t142 -61t142.5 61t50.5 186v415h71v-409q0 -154 -68 -236t-196 -82zM391 823l-47 -55l-131 109l47 55z" />
<glyph unicode="&#xda;" horiz-adv-x="675" d="M302 -10q-128 0 -196 81.5t-68 236.5v409h72v-415q0 -125 50 -186t142 -61t142.5 61t50.5 186v415h71v-409q0 -154 -68 -236t-196 -82zM260 768l-47 55l131 109l47 -55z" />
<glyph unicode="&#xdb;" horiz-adv-x="675" d="M302 -10q-128 0 -196 81.5t-68 236.5v409h72v-415q0 -125 50 -186t142 -61t142.5 61t50.5 186v415h71v-409q0 -154 -68 -236t-196 -82zM433 823l-47 -48l-84 81l-84 -81l-47 48l102 99h58z" />
<glyph unicode="&#xdc;" horiz-adv-x="675" d="M338 -10q-128 0 -196 81.5t-68 236.5v409h71v-415q0 -125 50.5 -186t142.5 -61t142 61t50 186v415h72v-409q0 -154 -68 -236t-196 -82zM452 870v-86h-72v86h72zM296 870v-86h-72v86h72z" />
<glyph unicode="&#xdd;" horiz-adv-x="567" d="M532 694l-213 -384v-310h-71v310l-213 384l60 33l189 -344l188 344zM270 768l-47 55l131 109l47 -55z" />
<glyph unicode="&#xde;" horiz-adv-x="578" d="M154 148v-148h-72v717h72v-149h156q105 0 167 -56t62 -154t-62 -154t-167 -56h-156zM154 503v-289h151q75 0 118.5 36.5t43.5 107.5t-43.5 108t-118.5 37h-151z" />
<glyph unicode="&#xdf;" horiz-adv-x="628" d="M147 505v-505h-71v512q0 101 59 158t147 57q96 0 149 -50.5t53 -130.5v-23l-131 -91q85 -7 144.5 -60.5t59.5 -155.5q0 -101 -58 -163.5t-154 -62.5q-95 0 -170 52l35 61q61 -48 136 -48q63 0 101 45.5t38 115.5q0 69 -46 110t-134 41h-66v61l174 122q0 50 -34.5 81 t-97.5 31q-60 0 -97 -42t-37 -115z" />
<glyph unicode="&#xe0;" horiz-adv-x="692" d="M535 -10l-65 184q-42 -7 -89 -7q-133 0 -201 57l-82 -234l-64 22l245 705h75l245 -705zM316 616l-114 -328q77 -57 184 -57q19 0 63 6zM406 823l-48 -55l-131 109l47 55z" />
<glyph unicode="&#xe1;" horiz-adv-x="622" d="M529 -10l-64 184q-42 -7 -89 -7q-134 0 -201 57l-82 -234l-64 22l244 705h76l245 -705zM311 616l-114 -328q77 -57 184 -57q18 0 62 6zM266 768l-47 55l131 109l47 -55z" />
<glyph unicode="&#xe2;" horiz-adv-x="622" d="M529 -10l-64 184q-42 -7 -89 -7q-134 0 -201 57l-82 -234l-64 22l244 705h76l245 -705zM311 616l-114 -328q77 -57 184 -57q18 0 62 6zM442 823l-47 -48l-84 81l-84 -81l-47 48l103 99h57z" />
<glyph unicode="&#xe3;" horiz-adv-x="622" d="M529 -10l-64 184q-42 -7 -89 -7q-134 0 -201 57l-82 -234l-64 22l244 705h76l245 -705zM311 616l-114 -328q77 -57 184 -57q18 0 62 6zM386 815q-38 0 -76.5 25.5t-63.5 25.5q-21 0 -39 -13.5t-24 -34.5l-61 24q33 90 125 90q35 0 76 -25.5t62 -25.5q35 0 64 51l53 -36 q-24 -45 -50.5 -63t-65.5 -18z" />
<glyph unicode="&#xe4;" horiz-adv-x="622" d="M529 -10l-64 184q-42 -7 -89 -7q-134 0 -201 57l-82 -234l-64 22l244 705h76l245 -705zM311 616l-114 -328q77 -57 184 -57q18 0 62 6zM425 870v-86h-72v86h72zM269 870v-86h-71v86h71z" />
<glyph unicode="&#xe5;" horiz-adv-x="692" d="M227 863q0 37 26 63t63 26t63.5 -26t26.5 -63t-26.5 -63t-63.5 -26t-63 26t-26 63zM279 863q0 -15 11 -26.5t26 -11.5t26.5 11.5t11.5 26.5t-11.5 26.5t-26.5 11.5t-26 -11.5t-11 -26.5zM535 -10l-65 184q-42 -7 -89 -7q-133 0 -201 57l-82 -234l-64 22l245 705h75 l245 -705zM316 616l-114 -328q77 -57 184 -57q19 0 63 6z" />
<glyph unicode="&#xe6;" horiz-adv-x="865" d="M813 651h-328v-274q53 21 124 21q55 0 123 -16l-16 -65q-66 16 -107 16q-75 0 -124 -29v-238h342v-66h-413v166q-130 0 -202 57l-124 -233l-59 33l368 694h416v-66zM243 281q72 -49 171 -49v369z" />
<glyph unicode="&#xe7;" horiz-adv-x="594" d="M328 -10q-133 0 -210 98.5t-77 268.5t78.5 270t212.5 100q159 0 227 -138l-59 -39q-52 112 -169 112q-102 0 -160 -83.5t-58 -221.5q0 -136 58 -219t157 -83q66 0 105 30.5t72 95.5l61 -34q-54 -104 -134 -138q23 -28 23 -65q0 -54 -33.5 -88.5t-89.5 -34.5 q-44 0 -73 20.5t-40 53.5l63 32q16 -41 54 -41q20 0 33.5 14.5t13.5 40.5q0 47 -55 49z" />
<glyph unicode="&#xe8;" horiz-adv-x="533" d="M481 651h-327v-274q53 21 124 21q54 0 122 -16l-16 -65q-66 16 -106 16q-75 0 -124 -29v-238h342v-66h-414v717h399v-66zM362 823l-47 -55l-131 109l47 55z" />
<glyph unicode="&#xe9;" horiz-adv-x="533" d="M481 651h-327v-274q53 21 124 21q54 0 122 -16l-16 -65q-66 16 -106 16q-75 0 -124 -29v-238h342v-66h-414v717h399v-66zM231 768l-47 55l131 109l47 -55z" />
<glyph unicode="&#xea;" horiz-adv-x="533" d="M481 651h-327v-274q53 21 124 21q54 0 122 -16l-16 -65q-66 16 -106 16q-75 0 -124 -29v-238h342v-66h-414v717h399v-66zM404 823l-47 -48l-84 81l-84 -81l-47 48l103 99h57z" />
<glyph unicode="&#xeb;" horiz-adv-x="533" d="M481 651h-327v-274q53 21 124 21q54 0 122 -16l-16 -65q-66 16 -106 16q-75 0 -124 -29v-238h342v-66h-414v717h399v-66zM387 870v-86h-72v86h72zM231 870v-86h-71v86h71z" />
<glyph unicode="&#xec;" horiz-adv-x="235" d="M172 717v-717h-72v717h72zM225 823l-47 -55l-131 109l47 55z" />
<glyph unicode="&#xed;" horiz-adv-x="235" d="M165 717v-717h-72v717h72zM87 768l-47 55l131 109l47 -55z" />
<glyph unicode="&#xee;" horiz-adv-x="235" d="M150 717v-717h-72v717h72zM245 823l-47 -48l-84 81l-84 -81l-47 48l102 99h57z" />
<glyph unicode="&#xef;" horiz-adv-x="235" d="M131 717v-717h-72v717h72zM209 870v-86h-72v86h72zM53 870v-86h-71v86h71z" />
<glyph unicode="&#xf0;" horiz-adv-x="657" d="M269 0h-168v337q-36 0 -86 -14v65q41 13 86 13v316h168q159 0 253 -98t94 -261t-94 -260.5t-253 -97.5zM173 322v-256h96q122 0 199 78t77 214t-77 214.5t-199 78.5h-96v-261q58 -15 76 -15q40 0 90 13v-65q-47 -14 -92 -14q-26 0 -74 13z" />
<glyph unicode="&#xf1;" horiz-adv-x="672" d="M154 531v-531h-72v717h72q24 -84 63 -155t133 -171q53 -56 75 -81t48 -61t46 -75v543h72v-717h-72q-17 66 -69 155.5t-138 178.5q-116 119 -158 197zM411 815q-38 0 -77 25.5t-64 25.5q-21 0 -38.5 -13.5t-23.5 -34.5l-62 24q33 90 125 90q35 0 76.5 -25.5t62.5 -25.5 q34 0 63 51l53 -36q-24 -45 -50 -63t-65 -18z" />
<glyph unicode="&#xf2;" d="M289 -10q-131 0 -204 97t-73 271t73 271.5t204 97.5t203.5 -97.5t72.5 -271.5t-72.5 -271t-203.5 -97zM289 55q99 0 152 79.5t53 223.5t-53 224t-152 80t-152 -80t-53 -224t53 -223.5t152 -79.5zM378 823l-47 -55l-131 109l47 55z" />
<glyph unicode="&#xf3;" d="M317 -10q-131 0 -203.5 97t-72.5 271t72.5 271.5t203.5 97.5t204 -97.5t73 -271.5t-73 -271t-204 -97zM317 55q99 0 152 79.5t53 223.5t-53 224t-152 80t-151.5 -79.5t-52.5 -224.5q0 -144 52.5 -223.5t151.5 -79.5zM275 768l-47 55l131 109l48 -55z" />
<glyph unicode="&#xf4;" d="M289 -10q-131 0 -204 97t-73 271t73 271.5t204 97.5t203.5 -97.5t72.5 -271.5t-72.5 -271t-203.5 -97zM289 55q99 0 152 79.5t53 223.5t-53 224t-152 80t-152 -80t-53 -224t53 -223.5t152 -79.5zM420 823l-47 -48l-84 81l-84 -81l-47 48l102 99h57z" />
<glyph unicode="&#xf5;" d="M317 -10q-131 0 -203.5 97t-72.5 271t72.5 271.5t203.5 97.5t204 -97.5t73 -271.5t-73 -271t-204 -97zM317 55q99 0 152 79.5t53 223.5t-53 224t-152 80t-151.5 -79.5t-52.5 -224.5q0 -144 52.5 -223.5t151.5 -79.5zM392 815q-38 0 -76.5 25.5t-63.5 25.5 q-21 0 -39 -13.5t-24 -34.5l-61 24q33 90 125 90q35 0 76 -25.5t62 -25.5q35 0 64 51l53 -36q-24 -45 -50.5 -63t-65.5 -18z" />
<glyph unicode="&#xf6;" d="M317 -10q-131 0 -203.5 97t-72.5 271t72.5 271.5t203.5 97.5t204 -97.5t73 -271.5t-73 -271t-204 -97zM317 55q99 0 152 79.5t53 223.5t-53 224t-152 80t-151.5 -79.5t-52.5 -224.5q0 -144 52.5 -223.5t151.5 -79.5zM431 870v-86h-72v86h72zM275 870v-86h-71v86h71z" />
<glyph unicode="&#xf8;" d="M317 -10q-73 0 -128 30l-22 -47l-58 27l28 59q-96 96 -96 299q0 174 72.5 271.5t203.5 97.5q68 0 128 -31l23 47l58 -26l-28 -60q96 -96 96 -299q0 -174 -73 -271t-204 -97zM317 55q99 0 152 79.5t53 223.5q0 153 -58 231l-245 -508q43 -26 98 -26zM113 358 q0 -153 57 -230l246 507q-44 27 -99 27q-99 0 -151.5 -79.5t-52.5 -224.5z" />
<glyph unicode="&#xf9;" horiz-adv-x="675" d="M302 -10q-128 0 -196 81.5t-68 236.5v409h72v-415q0 -125 50 -186t142 -61t142.5 61t50.5 186v415h71v-409q0 -154 -68 -236t-196 -82zM391 823l-47 -55l-131 109l47 55z" />
<glyph unicode="&#xfa;" horiz-adv-x="675" d="M302 -10q-128 0 -196 81.5t-68 236.5v409h72v-415q0 -125 50 -186t142 -61t142.5 61t50.5 186v415h71v-409q0 -154 -68 -236t-196 -82zM260 768l-47 55l131 109l47 -55z" />
<glyph unicode="&#xfb;" horiz-adv-x="675" d="M302 -10q-128 0 -196 81.5t-68 236.5v409h72v-415q0 -125 50 -186t142 -61t142.5 61t50.5 186v415h71v-409q0 -154 -68 -236t-196 -82zM433 823l-47 -48l-84 81l-84 -81l-47 48l102 99h58z" />
<glyph unicode="&#xfc;" horiz-adv-x="675" d="M338 -10q-128 0 -196 81.5t-68 236.5v409h71v-415q0 -125 50.5 -186t142.5 -61t142 61t50 186v415h72v-409q0 -154 -68 -236t-196 -82zM452 870v-86h-72v86h72zM296 870v-86h-72v86h72z" />
<glyph unicode="&#xfd;" horiz-adv-x="567" d="M532 694l-213 -384v-310h-71v310l-213 384l60 33l189 -344l188 344zM270 768l-47 55l131 109l47 -55z" />
<glyph unicode="&#xfe;" horiz-adv-x="578" d="M154 148v-148h-72v717h72v-149h156q105 0 167 -56t62 -154t-62 -154t-167 -56h-156zM154 503v-289h151q75 0 118.5 36.5t43.5 107.5t-43.5 108t-118.5 37h-151z" />
<glyph unicode="&#xff;" horiz-adv-x="567" d="M532 694l-213 -384v-310h-71v310l-213 384l60 33l189 -344l188 344zM397 870v-86h-71v86h71zM242 870v-86h-72v86h72z" />
<glyph unicode="&#x131;" horiz-adv-x="235" d="M154 717v-717h-72v717h72z" />
<glyph unicode="&#x141;" horiz-adv-x="531" d="M38 162l-40 47q44 64 103 87v421h72v-401q50 11 85.5 30t66.5 64l43 -44q-14 -20 -30.5 -36t-29.5 -25.5t-34.5 -18.5t-32 -12.5t-35.5 -10.5t-33 -9v-188h320v-66h-392v222q-36 -20 -63 -60z" />
<glyph unicode="&#x142;" horiz-adv-x="531" d="M38 162l-40 47q44 64 103 87v421h72v-401q50 11 85.5 30t66.5 64l43 -44q-14 -20 -30.5 -36t-29.5 -25.5t-34.5 -18.5t-32 -12.5t-35.5 -10.5t-33 -9v-188h320v-66h-392v222q-36 -20 -63 -60z" />
<glyph unicode="&#x152;" horiz-adv-x="973" d="M922 651h-328v-274q53 21 124 21q55 0 123 -16l-17 -65q-66 16 -106 16q-75 0 -124 -29v-238h342v-66h-414v88q-73 -98 -205 -98q-131 0 -203.5 97t-72.5 271t72.5 271.5t203.5 97.5q133 0 205 -99v89h400v-66zM317 55q99 0 152 79.5t53 223.5t-53 224t-152 80 t-151.5 -79.5t-52.5 -224.5q0 -144 52.5 -223.5t151.5 -79.5z" />
<glyph unicode="&#x153;" horiz-adv-x="973" d="M922 651h-328v-274q53 21 124 21q55 0 123 -16l-17 -65q-66 16 -106 16q-75 0 -124 -29v-238h342v-66h-414v88q-73 -98 -205 -98q-131 0 -203.5 97t-72.5 271t72.5 271.5t203.5 97.5q133 0 205 -99v89h400v-66zM317 55q99 0 152 79.5t53 223.5t-53 224t-152 80 t-151.5 -79.5t-52.5 -224.5q0 -144 52.5 -223.5t151.5 -79.5z" />
<glyph unicode="&#x160;" horiz-adv-x="537" d="M270 -10q-92 0 -152 51t-76 131l69 33q34 -150 159 -150q70 0 112 38.5t42 101.5q0 54 -39.5 85.5t-121.5 62.5q-43 16 -73.5 32t-61 40t-46 58.5t-15.5 78.5q0 79 60 127t143 48q160 0 206 -139l-63 -36q-17 55 -55 82.5t-88 27.5q-57 0 -94.5 -29.5t-37.5 -77.5 q0 -32 13 -56.5t40.5 -43.5t52 -31t66.5 -28q47 -18 76.5 -33.5t57 -38.5t40 -54.5t12.5 -74.5q0 -94 -64.5 -149.5t-161.5 -55.5zM352 922l47 -49l-102 -98h-57l-103 98l47 49l84 -81z" />
<glyph unicode="&#x161;" horiz-adv-x="537" d="M270 -10q-92 0 -152 51t-76 131l69 33q34 -150 159 -150q70 0 112 38.5t42 101.5q0 54 -39.5 85.5t-121.5 62.5q-43 16 -73.5 32t-61 40t-46 58.5t-15.5 78.5q0 79 60 127t143 48q160 0 206 -139l-63 -36q-17 55 -55 82.5t-88 27.5q-57 0 -94.5 -29.5t-37.5 -77.5 q0 -32 13 -56.5t40.5 -43.5t52 -31t66.5 -28q47 -18 76.5 -33.5t57 -38.5t40 -54.5t12.5 -74.5q0 -94 -64.5 -149.5t-161.5 -55.5zM352 922l47 -49l-102 -98h-57l-103 98l47 49l84 -81z" />
<glyph unicode="&#x178;" horiz-adv-x="567" d="M532 694l-213 -384v-310h-71v310l-213 384l60 33l189 -344l188 344zM397 870v-86h-71v86h71zM242 870v-86h-72v86h72z" />
<glyph unicode="&#x17d;" horiz-adv-x="555" d="M514 66v-66h-470q0 89 43 177t167 205q89 84 128 143t47 126h-375v66h454q0 -100 -42 -186t-165 -197q-74 -66 -120 -141t-48 -127h381zM361 922l48 -49l-103 -98h-57l-103 98l48 49l84 -81z" />
<glyph unicode="&#x17e;" horiz-adv-x="555" d="M514 66v-66h-470q0 89 43 177t167 205q89 84 128 143t47 126h-375v66h454q0 -100 -42 -186t-165 -197q-74 -66 -120 -141t-48 -127h381zM361 922l48 -49l-103 -98h-57l-103 98l48 49l84 -81z" />
<glyph unicode="&#x2c6;" horiz-adv-x="344" d="M303 618l-47 -48l-84 81l-84 -81l-47 48l102 99h58z" />
<glyph unicode="&#x2c7;" horiz-adv-x="344" d="M256 717l47 -48l-102 -99h-58l-102 99l47 48l84 -81z" />
<glyph unicode="&#x2dc;" horiz-adv-x="492" d="M321 610q-38 0 -77 26t-64 26q-21 0 -38.5 -14t-23.5 -35l-62 24q33 90 125 90q35 0 76 -25.5t62 -25.5q35 0 64 51l53 -36q-24 -45 -50 -63t-65 -18z" />
<glyph unicode="&#x2000;" horiz-adv-x="476" />
<glyph unicode="&#x2001;" horiz-adv-x="952" />
<glyph unicode="&#x2002;" horiz-adv-x="476" />
<glyph unicode="&#x2003;" horiz-adv-x="952" />
<glyph unicode="&#x2004;" horiz-adv-x="317" />
<glyph unicode="&#x2005;" horiz-adv-x="238" />
<glyph unicode="&#x2006;" horiz-adv-x="158" />
<glyph unicode="&#x2007;" horiz-adv-x="158" />
<glyph unicode="&#x2008;" horiz-adv-x="119" />
<glyph unicode="&#x2009;" horiz-adv-x="190" />
<glyph unicode="&#x200a;" horiz-adv-x="52" />
<glyph unicode="&#x2010;" horiz-adv-x="354" d="M307 355v-65h-260v65h260z" />
<glyph unicode="&#x2011;" horiz-adv-x="354" d="M307 355v-65h-260v65h260z" />
<glyph unicode="&#x2012;" horiz-adv-x="354" d="M307 355v-65h-260v65h260z" />
<glyph unicode="&#x2013;" horiz-adv-x="417" d="M285 268q-30 0 -81.5 21.5t-74.5 21.5q-34 0 -82 -24l-21 59q48 30 105 30q33 0 81.5 -21t74.5 -21q36 0 84 24l24 -54q-49 -36 -110 -36z" />
<glyph unicode="&#x2014;" horiz-adv-x="724" d="M503 254q-59 0 -109.5 18t-94 36.5t-86.5 18.5q-75 0 -166 -57l-32 54q36 29 90.5 48t107.5 19q64 0 152 -36t138 -36q49 0 86.5 11.5t88.5 42.5l32 -52q-91 -67 -207 -67z" />
<glyph unicode="&#x2018;" horiz-adv-x="200" d="M38 717h72q0 -56 15 -93t51 -71l-49 -51q-47 44 -68 94.5t-21 120.5z" />
<glyph unicode="&#x2019;" horiz-adv-x="221" d="M112 717h71q0 -120 -109 -215l-49 51q44 38 65.5 76t21.5 88z" />
<glyph unicode="&#x201a;" horiz-adv-x="221" d="M125 92h72q0 -119 -110 -215l-49 51q44 38 65.5 76t21.5 88z" />
<glyph unicode="&#x201c;" horiz-adv-x="333" d="M151 717h71q0 -50 21.5 -88t65.5 -76l-49 -51q-109 95 -109 215zM38 717h72q0 -56 15 -93t51 -71l-49 -51q-47 44 -68 94.5t-21 120.5z" />
<glyph unicode="&#x201d;" horiz-adv-x="333" d="M112 717h71q0 -120 -109 -215l-49 51q44 38 65.5 76t21.5 88zM224 717h72q0 -70 -21 -120.5t-68 -94.5l-49 51q36 34 51 71t15 93z" />
<glyph unicode="&#x201e;" horiz-adv-x="333" d="M125 92h72q0 -119 -110 -215l-49 51q44 38 65.5 76t21.5 88zM238 92h71q0 -70 -21 -120.5t-68 -94.5l-49 51q36 34 51.5 71.5t15.5 92.5z" />
<glyph unicode="&#x2022;" horiz-adv-x="321" d="M61 358q0 41 29.5 70.5t70.5 29.5t70 -29.5t29 -70.5t-29 -70t-70 -29t-70.5 29t-29.5 70z" />
<glyph unicode="&#x2026;" horiz-adv-x="645" d="M143 86v-86h-71v86h71zM358 86v-86h-71v86h71zM573 86v-86h-71v86h71z" />
<glyph unicode="&#x202f;" horiz-adv-x="190" />
<glyph unicode="&#x2039;" horiz-adv-x="366" d="M74 289v65l195 197l52 -51l-179 -178l179 -179l-52 -51z" />
<glyph unicode="&#x203a;" horiz-adv-x="366" d="M293 354v-65l-196 -197l-51 51l178 179l-178 178l51 51z" />
<glyph unicode="&#x2044;" horiz-adv-x="642" d="M595 688l-494 -698l-54 39l494 698z" />
<glyph unicode="&#x205f;" horiz-adv-x="238" />
<glyph unicode="&#x20ac;" horiz-adv-x="649" d="M31 403l-19 61q45 18 89 22q26 114 99 177.5t179 63.5q159 0 227 -138l-58 -38q-52 111 -170 111q-75 0 -127.5 -47t-75.5 -132q19 -3 61 -11t80.5 -13t75.5 -5q52 0 110 23l17 -53q-59 -34 -127 -34q-66 0 -136 16t-93 18q-3 -30 -3 -67q0 -20 1 -30q25 -3 91 -17 t103 -14q39 0 75 16l20 -53q-43 -29 -97 -29q-41 0 -102.5 15.5t-82.5 18.5q18 -98 72 -153.5t135 -55.5q66 0 107 31.5t71 93.5l60 -33q-38 -75 -94 -116t-144 -41q-113 0 -186.5 71.5t-93.5 200.5q-29 -6 -64 -19l-19 60q37 15 77 22q-1 11 -1 32q0 35 3 65 q-21 -4 -60 -19z" />
<glyph unicode="&#x2212;" horiz-adv-x="585" d="M539 401v-65h-492v65h492z" />
<glyph unicode="&#x25fc;" horiz-adv-x="727" d="M0 727h727v-727h-727v727z" />
<glyph unicode="&#x100004;" horiz-adv-x="618" d="M594 707l-224 -707h-80l-166 523q-21 64 -49 95t-73 42l15 67q66 -15 106 -57.5t66 -123.5l141 -440l197 621z" />
<glyph unicode="&#x100005;" horiz-adv-x="905" d="M880 713l-174 -713h-71l-157 588l-156 -588h-71l-126 517q-16 66 -42.5 100.5t-80.5 42.5l15 67q76 -13 116 -56.5t63 -135.5l94 -394l150 566h76l151 -566l141 586z" />
</font>
</defs>
</svg>
